Jump to content

Recommended Posts

wellstar

Sveiki!

Radusies vajadzība nokonvertēt *.mkv failu uz avi, ko saprastu pavecs mājas DVD atskaņotājs(divX, Xvid lasa).

Pasākums ir vienreizējs, tāpēc ieguldīt līdzekļus uz maksas programmam nevēlos.

Pāris izmēginātie free varianti, kaut ko burkšķ par nepareizu bitreitu :D Jūsu konstruktīvi ieteikumi???

 

Faila info:

Format : Matroska

Format version : Version 2

File size : 1,38 Gb

Duration : 41 м.

Overall bit rate : 4715 Кbit/s

Writing application : mkvmerge v5.5.0 ('Healer') built on Apr 6 2012 21:43:24

Writing library : libebml v1.2.3 + libmatroska v1.3.0

Видео

ID : 1

Format : AVC

Format/Info : Advanced Video Codec

Format profile : High@L3.1

Format settings, CABAC : No

Format settings, ReFrames : 2 кадра

Codec ID : V_MPEG4/ISO/AVC

Duration : 41 м.

Bit rate : 4045 Кbit/s

Width : 1278 пикселей

Height : 720 пикселей

Display aspect ratio : 16:9

Frame rate : 23,976 кадра/сек

Color space : YUV

Chroma subsampling : 4:2:0

Bit depth : 8 бит

Scan type : Прогрессивная

Bits/(Pixel*Frame) : 0.183

Stream size : 1,18 Гбайт (86%)

Language : English

Default : Да

Forced : Нет

Основные цвета : BT.709-5, BT.1361, IEC 61966-2-4, SMPTE RP177

Характеристики трансфера : BT.709-5, BT.1361

Коэффициенты матрицы : BT.709-5, BT.1361, IEC 61966-2-4 709, SMPTE RP177

Аудио #1

ID : 2

Format : AC-3

Format/Info : Audio Coding 3

Mode extension : CM (complete main)

Format settings, Endianness : Big

Codec ID : A_AC3

Duration : 41 м.

Bit rate mode : Постоянный

Bit rate : 192 Кбит/сек

Channel(s) : 2 канала

Channel positions : Front: L R

Sampling rate : 48,0 КГц

Bit depth : 16 бит

Compression mode : С потерями

Stream size : 57,5 Мбайт (4%)

Language : Russian

Default : Да

Forced : Нет

Link to post
Share on other sites

nezinu vai output formāts būs autoram nepieciešamais, bet kā mkv sagremotājs ir spēcīgs(liela daļa "cita veļaspulvera" atteicās vispār ņemt pretī mkv failus līdz bāleliņu lapās uzdūros uz šādu vienkārša interfeisa verķi, kas patiešām strādā un padara darbu) http://vidcoder.codeplex.com/

Link to post
Share on other sites
wellstar

Nu tad tā, izmantojot kaaarlis ieteikto Format Factory, ~40 min laikā tiku pie rezultāta, kas pārbaudot uz DVD visu nolasīja.

 

P.S. Tika izmantoti standarta uzstādījumi uz Xvid.

 

Paldies! Pārējas ieteiktās var testēt citreiz :)

Link to post
Share on other sites
Baigais Janka

Vislabākais DVD atskaņotājiem ir ConvertXtoDVD. Maksas gan (ja godīgs cilvēks esi :), bet tiešām to vērts - tur vēl visādas papildus iespējas, kā jau DVD ripuļiem - menu etc. Jebkuru video faila formātu Tev uztaisīs par standarta DVD ripu, ņemem DVD-RW matricu, rakstam iekšā un skatāmies. Man vēl nav patrāpījies, ka kādu nespētu nokonvertēt. Pie kam, vienkāršākajā piegājienā, var lietot nedomājot par visādiem videoštelles knifiem - ievelkam failu, nospiežam "konvertēt" - un rezltāts gatavs :)

Link to post
Share on other sites

Join the conversation

You can post now and register later. If you have an account, sign in now to post with your account.

Guest
Reply to this topic...

×   Pasted as rich text.   Paste as plain text instead

  Only 75 emoji are allowed.

×   Your link has been automatically embedded.   Display as a link instead

×   Your previous content has been restored.   Clear editor

×   You cannot paste images directly. Upload or insert images from URL.

Loading...
×
×
  • Create New...