Jump to content

Ar ko atskaņot Sony .mts Full HD uz Windows XP?


Recommended Posts

Mezavecis

Hai,

 

Kaut kā uz portatīvā ar Windows XP neizdodas atskaņot Full HD videomateriālu. Izmēģināju:

- VLC Player - uz neviena no datoriem, ne Windows 7 pat jaunākā 2.x versija uz i7 datora nespēj normāli bez bremzes atskaņot .mts formātu.

- DivX player - vispār never vaļā

- WMP dažu iemeslu dēļ nestrādā un tiek meklēta alternatīva.

- Virtual Dub arī negribēja ņemt pretī mts failus.

 

Ir instalēts FFDShow, bet nekādu efektu nedeva.

 

Uz Windows 7 datoriem šādu problēmu nav un kodeki jau integrēti sistēmā. Ir kādas idejas, ko vēl var izmēģināt, lai varētu skatīties video?

Edited by Mežavecis
Link to post
Share on other sites
Stepselis

Iedod vienu mazu fragmentiņu paprovēt!

Tu kaut ko savā aprakstā neesi sajaucis par Win7 ?

 

 

General

ID : 0 (0x0)

Complete name : L:\sample_1.m2ts

Format : BDAV

Format/Info : Blu-ray Video

File size : 26.0 MiB

Duration : 18s 270ms

Overall bit rate : 11.9 Mbps

Maximum Overall bit rate : 18.0 Mbps

 

Video

ID : 4113 (0x1011)

Menu ID : 1 (0x1)

Format : AVC

Format/Info : Advanced Video Codec

Format profile : Main@L4.0

Format settings, CABAC : Yes

Format settings, ReFrames : 2 frames

Format settings, GOP : M=1, N=30

Codec ID : 27

Duration : 17s 951ms

Bit rate mode : Variable

Bit rate : 11.2 Mbps

Maximum bit rate : 16.0 Mbps

Width : 1 440 pixels

Height : 1 080 pixels

Display aspect ratio : 16:9

Frame rate : 29.970 fps

Color space : YUV

Chroma subsampling : 4:2:0

Bit depth : 8 bits

Scan type : Interlaced

Scan order : Top Field First

Bits/(Pixel*Frame) : 0.240

Stream size : 24.0 MiB (92%)

 

Audio

ID : 4352 (0x1100)

Menu ID : 1 (0x1)

Format : AC-3

Format/Info : Audio Coding 3

Mode extension : CM (complete main)

Codec ID : 129

Duration : 18s 16ms

Bit rate mode : Constant

Bit rate : 256 Kbps

Channel(s) : 2 channels

Channel positions : Front: L R

Sampling rate : 48.0 KHz

Bit depth : 16 bits

Compression mode : Lossy

Delay relative to video : -67ms

Stream size : 563 KiB (2%)

 

 

Šādu fragmentu spēlē bez problēmām gan VLC, gan MPC.

Ir uzlikta tikai K-Lite kodeku paka (full, kas ir apmēram 16MB lielumā).

Edited by Stepselis
Link to post
Share on other sites
Mezavecis

Es tak 1. topikā minēju, ka uz Windows 7 un Windows 2008 R2 WMP strādā normāli, bet ar kādiem līdzekļiem panākt, lai uz Windows Xp var atskaņot normāli šo formātu?

Edited by Mežavecis
Link to post
Share on other sites
raiviic

Nezinu, kas tev tur sistēmā darās - man darbā XP SP3, VLC 1.0.5 Goldeneye - nekādu problēmu, nekas arī nebremzējas. Visticamāk kaut kas konfliktē sitēmā - nones pilnīgi visus kodekus un pamēģini ko saka VLC.

post-602-0-15567500-1332146795_thumb.png

post-602-0-27207500-1332147026_thumb.png

Edited by raiviic
Link to post
Share on other sites
Stepselis

Arī Tavs video spēlē bez problēmām uz XP...(skat.iepriekš)

Varbūt vienkārši dators par švaku!? Ko redz Task Menedžerī?

22.0 Mbps bitreits jau nav nekāds mazais.

Edited by Stepselis
Link to post
Share on other sites
Žaks Noriss

Varbūt interlace pie vainas. Man ar GPU akselerāciju rāda visādus kvadrātus. Nebremzē, bet kvadrāti ir baisi.

Link to post
Share on other sites
Žaks Noriss

Sorry, man VLC 2.0 uz Win 7 64 bit. Iepriekš biju divas reizes nokrašojis VLC ar cities 1080i viģikiem (viens ap 8GB, otram ap 20GB), bet šis iedotais gabaliņš funkcionēja bez aizķeršanās.

Link to post
Share on other sites
Mezavecis

Dators nav diezko nikns - Asus F3Sr ar C2D T7300 un X2400.

Link to post
Share on other sites

Join the conversation

You can post now and register later. If you have an account, sign in now to post with your account.

Guest
Reply to this topic...

×   Pasted as rich text.   Paste as plain text instead

  Only 75 emoji are allowed.

×   Your link has been automatically embedded.   Display as a link instead

×   Your previous content has been restored.   Clear editor

×   You cannot paste images directly. Upload or insert images from URL.

Loading...
×
×
  • Create New...